#TITLE:BadX;
#SUBTITLE:;
#ARTIST:Xtra Ravers;
#TITLETRANSLIT:;
#SUBTITLETRANSLIT:;
#ARTISTTRANSLIT:;
#CREDIT:;
#BANNER:BadX_logo.jpg;
#BACKGROUND:BadX_bg.jpg;
#LYRICSPATH:;
#CDTITLE:Lan.png;
#MUSIC:BadX.mp3;
#OFFSET:-0.040;
#SAMPLESTART:100.000;
#SAMPLELENGTH:12.000;
#SELECTABLE:YES;
#BPMS:0.000=146.000;
#STOPS:;
#BGCHANGES:;
// cache tags:
#FIRSTBEAT:9.000;
#LASTBEAT:324.000;
#SONGFILENAME:Songs/Super Dancer Online/BadX/BadX.sm;
#HASMUSIC:1;
#HASBANNER:1;
#MUSICLENGTH:136.401;
// end cache tags

//---------------dance-single - sky----------------
#NOTES:
     dance-single:
     sky:
     Hard:
     10:
     0.998,1.000,1.000,0.044,0.608,693.000,254.000,6.000,0.000,4.000:

0000
0000
0000
0000
,
0000
0000
0000
0000
,
0000
2000
0000
0020
,
3000
0000
0230
0000
,
0320
0000
0000
0000
0002
0000
0000
0000
0000
0100
0000
0000
0100
0000
0100
0000
,
0133
0000
0000
0010
0000
0000
0001
0000
0000
0010
0000
0000
0100
0000
0010
0000
,
2001
0000
0000
0100
0000
0000
0010
0000
0000
0001
0000
0000
0100
0000
0001
0000
,
0010
0000
0000
0100
0000
0000
0010
0000
0000
0001
0000
0000
0010
0000
0001
0000
,
3100
0010
0100
0010
0100
0010
0100
0010
0100
0010
0100
0010
0100
0010
0100
0010
,
0100
0000
0000
0001
0110
0000
1000
0000
0000
0001
0000
0000
0110
0000
1000
0000
,
0001
0000
0000
0010
1001
0000
0100
0000
0000
0010
0000
0000
0101
0000
1000
0000
,
0001
0000
0000
0001
1010
0000
0100
0000
0000
1000
0000
0000
0011
0000
1000
0000
,
0100
0000
0000
1000
0011
0000
0100
0000
0000
1000
0000
0000
0110
0000
0001
0000
,
0010
0000
0000
1000
0101
0000
0010
0000
0000
1000
0000
0000
0101
0000
1000
0000
,
0010
0000
0000
0001
0110
0000
0010
0000
0000
0100
0000
0000
1001
0000
0010
0000
,
0100
0000
0000
0001
1100
0000
0100
0000
0000
0010
0000
0000
1100
0000
0010
0000
,
1000
0001
1000
0001
1000
0001
1000
0001
1000
0001
1000
0001
1000
0001
1000
0001
,
1000
0110
1000
0101
,
0010
1100
0100
0011
,
0100
1010
0100
1100
,
0010
0011
1000
0101
,
0010
1001
0010
1100
,
0100
0011
0010
1010
,
0100
0101
0010
1010
,
1001
0001
0001
0001
0101
0001
0001
0001
1001
0001
0001
0001
0101
0001
0001
0001
,
1000
0110
0010
1001
,
0010
1100
0010
0110
,
0001
1001
0100
1010
,
0100
0110
1000
0101
,
0010
1100
0010
1001
,
0100
1100
0010
0101
,
0010
0000
0000
0000
1100
0000
0000
0000
0001
0000
0000
0000
0110
0010
0110
0010
,
1001
0000
0000
1001
0000
0000
1001
0000
0000
0000
0000
0010
0100
0010
0100
0010
0100
0010
0100
0010
0100
0010
0100
0010
,
0101
0010
1100
0001
0110
1000
0101
0010
,
1100
0001
1010
0100
1100
0010
0110
1000
,
0011
0100
1010
0100
1100
0010
0110
0010
,
0011
0000
0100
0100
1100
0000
0001
0001
0011
1000
1000
1000
1010
0100
0100
0100
,
0101
0010
1100
0010
0110
0001
0011
0010
,
1001
0100
1010
0010
0110
0001
1010
0100
,
1010
0001
0110
1000
0011
0010
1100
0010
,
0101
0001
0001
0001
1001
0001
0001
0001
1010
0010
0010
0010
0011
0010
0010
0010
,
1010
0100
1100
0010
0101
1000
0101
0010
,
1100
0010
0110
0001
1010
0100
1100
0001
,
1010
0100
1100
0010
0110
0001
0011
0010
,
1010
0010
0101
1000
0110
0010
1100
0010
,
0110
0001
1010
0100
1010
0010
0101
0010
,
0110
1000
0011
0100
1010
0010
0110
0001
,
0101
0100
1010
0010
0110
0001
1010
0100
,
0001
0001
0001
0001
0001
0001
0001
0001
0001
0001
0001
0001
0001
0001
0001
0001
,
0101
0010
1000
0011
0100
0001
0010
1000
,
0110
0001
0100
0011
1000
0010
0100
0001
,
0110
1000
0001
0110
0001
0010
1000
0010
,
0110
0001
1000
0110
1000
0001
0010
1000
,
0110
0001
0110
1000
0110
0001
0101
1000
,
0011
0100
1001
1000
0110
0100
1001
0010
,
1001
0010
0110
1000
0110
1000
0011
0100
,
0001
0001
0001
0001
0011
0010
0010
0010
0110
0100
0100
0100
1100
1000
1000
1000
,
1001
0100
1100
0010
0101
0010
1010
0100
,
1100
0010
0110
0001
1010
0100
0011
0010
,
1010
0100
1001
0010
1100
0010
0101
0010
,
1100
0010
0110
0001
0011
0100
1010
0001
,
0101
0010
1001
0010
0110
1000
0101
0010
,
1100
0010
0101
1000
0101
0001
1100
0010
,
0101
1000
1010
0010
0101
0010
1100
0001
,
1100
0011
1100
0011
1100
0011
1100
0011
1100
0011
1100
0011
1100
0011
1100
0011
,
1100
0010
0101
0010
1100
0001
1001
0100
,
1010
0100
1100
0001
0110
0010
1001
0100
,
1100
0010
0110
0001
0110
0100
1100
0001
,
0110
0100
1010
0001
0110
0010
1001
0010
,
1100
0010
0110
0001
0110
0100
1010
0001
,
0110
1000
0101
0010
1100
0100
1010
0001
,
1010
0100
1100
0010
0011
0100
1010
0001
,
1010
0101
1010
0101
1010
0101
1010
0101
1010
0101
1010
0101
1010
0101
1010
0101
,
1010
0100
1000
0010
0101
0010
0100
1000
0001
0100
0010
1000
0110
1000
0001
0100
,
1000
0001
0100
0010
1001
0100
1000
0010
0100
0010
0001
1000
0110
0001
1000
0010
,
0100
0001
0010
1000
0101
0010
1000
0010
1000
0100
0001
0010
1100
0010
0100
0001
,
1000
0100
1000
0010
0101
1000
0010
0100
0001
0010
1000
0100
1001
0010
0100
0010
,
1000
0010
0100
0001
1100
0010
0100
1000
0010
0100
0001
0010
1100
0001
0100
0010
,
0100
1000
0001
0100
0011
1000
0100
0010
1000
0010
0100
0001
1010
0100
1000
0010
,
0001
0100
1000
0010
0101
1000
0010
0100
0010
1000
0010
0100
0011
0100
1000
0001
,
0110
0110
0110
0110
0110
0110
0110
0110
0110
0110
0110
0110
0110
0110
0110
0110
,
0110
0000
0000
0000
;
